[ Сегодня идет свободное скачивание без начисления Download ]


Статистика раздачи
Скачал: [ 4 ]
 
   
 
 
 
 
Сокровище Амазонки / The Rundown
Год выпуска: 2003
Страна: США
Жанр: боевик, триллер, комедия, приключения
Продолжительность: 01:44:15
Перевод: Дубляж, Оригинал
Субтитры: Русские (полные), Английские (полные)
Режиссер: Питер Берг

В ролях: Дуэйн Джонсон, Шонн Уильям Скотт, Розарио Доусон, Кристофер Уокен, Юэн Бремнер, Джон Гриз, Уильям Лаккинг, Эрни Рейес мл., Стюарт Ф. Уилсон, Дэннис Кейффер
Описание: Если поступило предложение, от которого нельзя отказаться, — вот и не отказывайся! В качестве расплаты с долгом перед мафией интеллигентному громиле Веку предлагается отправиться в джунгли Амазонки и доставить домой затерявшегося где-то там афериста Трэвиса, блудного сына «крестного отца». Вот только прибыв на место, герой обнаруживает, что шансов доставить свой груз не по частям у него маловато. Непутевый Трэвис перешел дорожку местному авторитету Хэтчеру, начав охоту за легендарным золотым идолом индейцев, на который тот давно мечтал наложить лапу. Беку не остается иного выбора, как призвать на помощь свои незаурядное чувство юмора, стальные мускулы и вступить в сумасшедшую гонку за сокровищем, пока его «клиента» не скормили ягуарам!..
Качество: BDRip 720p / 60 FPS by TIberiumsun69
Формат: MKV
Видео кодек: H.265
Аудио кодек: AC3
Видео: HEVC, 1280x544 (2.35:1), 2207 kbps, 60.000 fps, 0.053 bpp
Аудио#1: AC3 / 5.1 / 48 kHz / 640 kbps / 16 bit | DUB - Blu-ray CEE
Аудио#2: AC3 / 5.1 / 48 kHz / 640 kbps / 16 bit | Original

Скриншоты

MediaInfo

General
Unique ID : 79293107958242654019973590580745926264 (0x3BA74C0EBF64831A92AAB826DD32F678)
Complete name : D:TorrentsСокровище амазонки BDRip-HEVC 720p 60fps.mkv
Format : Matroska
Format version : Version 4 / Version 2
File size : 2.54 GiB
Duration : 1 h 44 min
Overall bit rate : 3 491 kb/s
Movie name : The Rundown (2003) by Tiberiumsun69
Encoded date : UTC 2018-02-25 12:28:42
Writing application : mkvmerge v20.0.0 ('I Am The Sun') 64-bit
Writing library : libebml v1.3.5 + libmatroska v1.4.8
Video
ID : 1
Format : HEVC
Format/Info : High Efficiency Video Coding
Format profile : Main [email protected]@High
Codec ID : V_MPEGH/ISO/HEVC
Duration : 1 h 44 min
Bit rate : 2 207 kb/s
Width : 1 280 pixels
Height : 544 pixels
Display aspect ratio : 2.35:1
Frame rate mode : Constant
Frame rate : 60.000 FPS
Color space : YUV
Chroma subsampling : 4:2:0
Bit depth : 10 bits
Bits/(Pixel*Frame) : 0.053
Stream size : 1.61 GiB (63%)
Writing library : x265 2.6+37-1949157705ce:[Windows][MSVC 1912][64 bit] 10bit
Encoding settings : cpuid=1173503 / frame-threads=3 / numa-pools=8 / wpp / no-pmode / no-pme / psnr / ssim / log-level=2 / input-csp=1 / input-res=1280x544 / interlace=0 / total-frames=375301 / level-idc=40 / high-tier=1 / uhd-bd=0 / ref=4 / no-allow-non-conformance / no-repeat-headers / annexb / no-aud / no-hrd / info / hash=0 / no-temporal-layers / open-gop / min-keyint=25 / keyint=250 / gop-lookahead=0 / bframes=16 / b-adapt=2 / b-pyramid / bframe-bias=0 / rc-lookahead=20 / lookahead-slices=0 / scenecut=40 / radl=0 / no-intra-refresh / ctu=64 / min-cu-size=8 / no-rect / no-amp / max-tu-size=32 / tu-inter-depth=1 / tu-intra-depth=1 / limit-tu=0 / rdoq-level=0 / dynamic-rd=0.00 / no-ssim-rd / signhide / no-tskip / nr-intra=0 / nr-inter=0 / no-constrained-intra / strong-intra-smoothing / max-merge=2 / limit-refs=3 / no-limit-modes / me=2 / subme=7 / merange=32 / temporal-mvp / weightp / no-weightb / no-analyze-src-pics / deblock=0:0 / sao / no-sao-non-deblock / rd=3 / no-early-skip / rskip / no-fast-intra / no-tskip-fast / no-cu-lossless / no-b-intra / no-splitrd-skip / rdpenalty=0 / psy-rd=1.00 / psy-rdoq=0.00 / no-rd-refine / no-lossless / cbqpoffs=0 / crqpoffs=0 / rc=crf / crf=18.0 / qcomp=0.60 / qpstep=4 / stats-write=0 / stats-read=0 / vbv-maxrate=30000 / vbv-bufsize=30000 / vbv-init=0.9 / crf-max=0.0 / crf-min=0.0 / ipratio=1.40 / pbratio=1.30 / aq-mode=1 / aq-strength=1.00 / cutree / zone-count=0 / no-strict-cbr / qg-size=32 / no-rc-grain / qpmax=69 / qpmin=0 / no-const-vbv / sar=1 / overscan=0 / videoformat=5 / range=0 / colorprim=2 / transfer=2 / colormatrix=2 / chromaloc=0 / display-window=0 / max-cll=0,0 / min-luma=0 / max-luma=1023 / log2-max-poc-lsb=8 / vui-timing-info / vui-hrd-info / slices=1 / no-opt-qp-pps / no-opt-ref-list-length-pps / no-multi-pass-opt-rps / scenecut-bias=0.05 / no-opt-cu-delta-qp / no-aq-motion / no-hdr / no-hdr-opt / no-dhdr10-opt / analysis-reuse-level=5 / scale-factor=0 / refine-intra=0 / refine-inter=0 / refine-mv=0 / no-limit-sao / ctu-info=0 / no-lowpass-dct / refine-mv-type=0 / copy-pic=1
Default : Yes
Forced : No
Audio #1
ID : 2
Format : AC-3
Format/Info : Audio Coding 3
Codec ID : A_AC3
Duration : 1 h 44 min
Bit rate mode : Constant
Bit rate : 640 kb/s
Channel(s) : 6 channels
Channel positions : Front: L C R, Side: L R, LFE
Sampling rate : 48.0 kHz
Frame rate : 31.250 FPS (1536 SPF)
Bit depth : 16 bits
Compression mode : Lossy
Stream size : 477 MiB (18%)
Title : Dub
Language : Russian
Service kind : Complete Main
Default : Yes
Forced : No
Audio #2
ID : 3
Format : AC-3
Format/Info : Audio Coding 3
Codec ID : A_AC3
Duration : 1 h 44 min
Bit rate mode : Constant
Bit rate : 640 kb/s
Channel(s) : 6 channels
Channel positions : Front: L C R, Side: L R, LFE
Sampling rate : 48.0 kHz
Frame rate : 31.250 FPS (1536 SPF)
Bit depth : 16 bits
Compression mode : Lossy
Stream size : 477 MiB (18%)
Title : Eng
Language : English
Service kind : Complete Main
Default : No
Forced : No
Text #1
ID : 4
Format : UTF-8
Codec ID : S_TEXT/UTF8
Codec ID/Info : UTF-8 Plain Text
Duration : 1 h 36 min
Bit rate : 82 b/s
Count of elements : 1068
Stream size : 58.8 KiB (0%)
Title : Rus full
Language : Russian
Default : No
Forced : No
Text #2
ID : 5
Format : UTF-8
Codec ID : S_TEXT/UTF8
Codec ID/Info : UTF-8 Plain Text
Duration : 1 h 37 min
Bit rate : 55 b/s
Count of elements : 1059
Stream size : 39.7 KiB (0%)
Title : Eng full [sdh]
Language : English
Default : No
Forced : No
Menu
00:00:00.000 : :00:00:00.000
00:05:57.857 : :00:05:57.857
00:11:31.941 : :00:11:31.941
00:16:29.238 : :00:16:29.238
00:23:49.261 : :00:23:49.261
00:29:18.006 : :00:29:18.006
00:36:12.295 : :00:36:12.295
00:42:17.160 : :00:42:17.160
00:48:35.246 : :00:48:35.246
00:54:23.051 : :00:54:23.051
01:02:12.604 : :01:02:12.604
01:08:52.545 : :01:08:52.545
01:16:15.446 : :01:16:15.446
01:23:27.377 : :01:23:27.377
01:29:43.461 : :01:29:43.461
01:32:50.231 : :01:32:50.231

Читать в первую очередь перед скачиванием!!!

Прежде чем скачивать фильм полностью, скачайте "сэмпл", и проверьте будет ли воспроизводится видео на вашем устройстве!
Q: Присутствуют ли артефакты на изображении?
A: Да, есть, и будут, какие настройки скритпа не вписывай они будут постоянно! Так как это дорисованные кадры из исходных + Видео ряд обработан фильтром "Sharp"
Q: У меня не запускается видео на компьютере?
A: Обновите кодеки. (попробуйте другие видео проигрыватели)
Q: У меня идет рассинхрон звука и видео?
A: Проблема в мощности компьютера. (возможно также нужно обновить кодеки)
Q: Что нужно для воспроизведения данного видео.
A: Что рекомендуется для воспроизведения мной:
Процессор: 4х ядерный
Видео карта: минимум 512Мб. И желательно включить обработку изображения с помощью видео карты. (Деинтерлейсинг, подавление блочности и т.д.)
ОЗУ: 2-4Гб
Проигрыватели.
MPC-HC (Media Player Classic - Home Cinema)
The KMPlayer (Korean Multimedia Player) (оптимальный вариант)
Mirillis Splash PRO (Если что то проигрыватель сам может преобразовывать видео вплоть до частоты кадров монитора. Или тех же 60fps.)

[Цитировать]



Показать сообщения:    

Текущее время: 25-Авг 09:55

Часовой пояс: UTC + 6


Вы не можете начинать темы
Вы не можете отвечать на сообщения
Вы не можете редактировать свои сообщения
Вы не можете удалять свои сообщения
Вы не можете голосовать в опросах
Вы не можете прикреплять файлы к сообщениям
Вы не можете скачивать файлы

!ВНИМАНИЕ!
Сайт не предоставляет электронные версии произведений, а занимается лишь коллекционированием и каталогизацией ссылок, присылаемых и публикуемых на форуме нашими читателями. Если вы являетесь правообладателем какого-либо представленного материала и не желаете, чтобы ссылка на него находилась в нашем каталоге, свяжитесь с нами, и мы незамедлительно удалим ее. Файлы для обмена на трекере предоставлены пользователями сайта, и администрация не несет ответственности за их содержание. Просьба не заливать файлы, защищенные авторскими правами, а также файлы нелегального содержания!