[ Сегодня идет свободное скачивание без начисления Download ]


Статистика раздачи
Скачал: [ 35 ]
 
   
 
 
 
 
Тор: Рагнарёк / Thor: Ragnarok (2017) BDRip 720p | 60 fps Информация о фильме
Русское название: Тор: Рагнарёк
Оригинальное название: Thor: Ragnarok
Год выхода: 2017
Жанр: фантастика, фэнтези, боевик, комедия, приключения
Режиссер: Тайка Вайтити
Выпущено: США
Продолжительность: 01:59:15
Перевод: Дублированный
В ролях: Крис Хемсворт, Том Хиддлстон, Кейт Бланшетт, Идрис Эльба, Джефф Голдблюм, Тесса Томпсон, Карл Урбан, Марк Руффало, Энтони Хопкинс, Бенедикт Камбербэтч, Тайка Вайтити, Рэйчел Хаус...
Описание:
Вернувшись в Асгард в поисках таинственного врага, ведущего охоту на Камни Бесконечности, Тор обнаруживает, что действия его брата Локи, захватившего трон Асгарда, привели к приближению наиболее страшного события — Рагнарёка. По легенде это ознаменует последнюю битву Асгарда, последствием которой станет его полное уничтожение. В попытке предотвратить это событие Тору предстоит прибегнуть к помощи своего товарища из Мстителей — Халка. Вместе им предстоит столкнуться лицом к лицу со злейшим врагом всех девяти миров — огненным демоном Суртуром, целью которого является исполнение пророчества о Рагнарёке и уничтожение девяти миров.
Файл
Качество: BDRip 720p (исходник Blu-ray Disc)
Контейнер: MKV (расширение файла)
Видео: 1280x536, 5360 Кбит/сек, 60.000 кадр/сек, AVC, x264, [email protected], 2.40:1, 0.130 Бит/[Пиксели*Кадры]
Аудио 1: AC-3, 640 Кбит/сек, 6 канала(ов), 48,0 КГц - Дублированный / Русский
Аудио 2: AC-3, 640 Кбит/сек, 6 канала(ов), 48,0 КГц - Оригинал / Английский
Субтитры: Русские | Полные, Английские | Полные
Форсированные субтитры: Русские
Чаптеры (Главы): Есть

MediaInfo

Format : Matroska
Format version : Version 2
File size : 6.07 GiB
Duration : 2 h 10 min
Overall bit rate : 6 643 kb/s
Movie name : Thor: Ragnarok.(2017).BDRip.720p.[envy].[60fps]
Encoded date : UTC 2018-03-04 06:50:25
Writing application : mkvmerge v5.8.0 ('No Sleep / Pillow') built on Sep 2 2012 15:37:04
Writing library : libebml v1.2.3 + libmatroska v1.3.0
Video
ID : 1
Format : AVC
Format/Info : Advanced Video Codec
Format profile : [email protected]
Format settings : CABAC / 9 Ref Frames
Format settings, CABAC : Yes
Format settings, ReFrames : 9 frames
Codec ID : V_MPEG4/ISO/AVC
Duration : 2 h 10 min
Bit rate : 5 360 kb/s
Width : 1 280 pixels
Height : 536 pixels
Display aspect ratio : 2.40:1
Frame rate mode : Constant
Frame rate : 60.000 FPS
Color space : YUV
Chroma subsampling : 4:2:0
Bit depth : 8 bits
Scan type : Progressive
Bits/(Pixel*Frame) : 0.130
Stream size : 4.78 GiB (79%)
Title : Thor: Ragnarok.(2017).BDRip.720p.[envy].[60fps]
Writing library : x264 core 146 r2538 121396c
Encoding settings : cabac=1 / ref=9 / deblock=1:0:0 / analyse=0x3:0x113 / me=umh / subme=10 / psy=1 / psy_rd=1.00:0.00 / mixed_ref=1 / me_range=24 / chroma_me=1 / trellis=2 / 8x8dct=1 / cqm=0 / deadzone=21,11 / fast_pskip=0 / chroma_qp_offset=-2 / threads=12 / lookahead_threads=1 / sliced_threads=0 / nr=0 / decimate=1 / interlaced=0 / bluray_compat=0 / constrained_intra=0 / bframes=5 / b_pyramid=2 / b_adapt=2 / b_bias=0 / direct=3 / weightb=1 / open_gop=1 / weightp=2 / keyint=250 / keyint_min=25 / scenecut=40 / intra_refresh=0 / rc=2pass / mbtree=0 / bitrate=5360 / ratetol=1.0 / qcomp=0.60 / qpmin=0 / qpmax=69 / qpstep=4 / cplxblur=20.0 / qblur=0.5 / ip_ratio=1.40 / pb_ratio=1.30 / aq=3:0.80
Language : English
Default : Yes
Forced : No
Audio #1
ID : 2
Format : AC-3
Format/Info : Audio Coding 3
Codec ID : A_AC3
Duration : 2 h 10 min
Bit rate mode : Constant
Bit rate : 640 kb/s
Channel(s) : 6 channels
Channel positions : Front: L C R, Side: L R, LFE
Sampling rate : 48.0 kHz
Frame rate : 31.250 FPS (1536 SPF)
Bit depth : 16 bits
Compression mode : Lossy
Stream size : 599 MiB (10%)
Title : Dub
Language : Russian
Service kind : Complete Main
Default : Yes
Forced : No
Audio #2
ID : 3
Format : AC-3
Format/Info : Audio Coding 3
Codec ID : A_AC3
Duration : 2 h 10 min
Bit rate mode : Constant
Bit rate : 640 kb/s
Channel(s) : 6 channels
Channel positions : Front: L C R, Side: L R, LFE
Sampling rate : 48.0 kHz
Frame rate : 31.250 FPS (1536 SPF)
Bit depth : 16 bits
Compression mode : Lossy
Stream size : 599 MiB (10%)
Title : Eng
Language : English
Service kind : Complete Main
Default : No
Forced : No
Text #1
ID : 4
Format : UTF-8
Codec ID : S_TEXT/UTF8
Codec ID/Info : UTF-8 Plain Text
Title : Rus forced
Language : Russian
Default : Yes
Forced : Yes
Text #2
ID : 5
Format : UTF-8
Codec ID : S_TEXT/UTF8
Codec ID/Info : UTF-8 Plain Text
Title : Rus full
Language : Russian
Default : No
Forced : No
Text #3
ID : 6
Format : UTF-8
Codec ID : S_TEXT/UTF8
Codec ID/Info : UTF-8 Plain Text
Title : Eng full
Language : English
Default : No
Forced : No
Menu
00:00:00.000 : :The Great Prophecy
00:06:20.672 : :The Tragedy Of Loki Of Asgard
00:14:11.642 : :A Worthy Inclusion
00:22:12.873 : :The Goddess Of Death
00:26:43.060 : :"Are You A Fighter, Or Are You Food?"
00:31:29.721 : :Heiress Apparent
00:35:03.935 : :The Grandmaster
00:42:49.734 : :The Eternal Flame
00:48:31.534 : :The Contest Of Champions
00:59:38.784 : :The Resistance
01:07:57.907 : :Hotheaded Fools
01:17:30.604 : :The Revengers
01:27:25.323 : :"The Revolution Has Begun"
01:36:08.721 : :Ready For War
01:42:35.733 : :"Asgard Is Not A Place"
01:49:19.887 : :"What Were You The God Of Again?"
01:54:57.599 : :Ragnarok
02:00:37.522 : :End Credits

Читать в первую очередь перед скачиванием!!!

Прежде чем скачивать фильм полностью, скачайте "сэмпл", и проверьте будет ли воспроизводится видео на вашем устройстве!
Q: Присутствуют ли артефакты на изображении?
A: Да, есть, и будут, какие настройки скритпа не вписывай они будут постоянно! Так как это дорисованные кадры из исходных + Видео ряд обработан фильтром "Sharp"
Q: У меня не запускается видео на компьютере?
A: Обновите кодеки. (попробуйте другие видео проигрыватели)
Q: У меня идет рассинхрон звука и видео?
A: Проблема в мощности компьютера. (возможно также нужно обновить кодеки)
Q: Что нужно для воспроизведения данного видео.
A: Что рекомендуется для воспроизведения мной:
Процессор: 4х ядерный
Видео карта: минимум 512Мб. И желательно включить обработку изображения с помощью видео карты. (Деинтерлейсинг, подавление блочности и т.д.)
ОЗУ: 2-4Гб
Проигрыватели.
MPC-HC (Media Player Classic - Home Cinema)
The KMPlayer (Korean Multimedia Player) (оптимальный вариант)
Mirillis Splash PRO (Если что то проигрыватель сам может преобразовывать видео вплоть до частоты кадров монитора. Или тех же 60fps.)

[Цитировать]

Спасибо! качество супер!

[Цитировать]

После этого фильма нужно обязательно смотреть мстители война бесконечности

[Цитировать]



Показать сообщения:    

Текущее время: 25-Авг 18:00

Часовой пояс: UTC + 6


Вы не можете начинать темы
Вы не можете отвечать на сообщения
Вы не можете редактировать свои сообщения
Вы не можете удалять свои сообщения
Вы не можете голосовать в опросах
Вы не можете прикреплять файлы к сообщениям
Вы не можете скачивать файлы

!ВНИМАНИЕ!
Сайт не предоставляет электронные версии произведений, а занимается лишь коллекционированием и каталогизацией ссылок, присылаемых и публикуемых на форуме нашими читателями. Если вы являетесь правообладателем какого-либо представленного материала и не желаете, чтобы ссылка на него находилась в нашем каталоге, свяжитесь с нами, и мы незамедлительно удалим ее. Файлы для обмена на трекере предоставлены пользователями сайта, и администрация не несет ответственности за их содержание. Просьба не заливать файлы, защищенные авторскими правами, а также файлы нелегального содержания!