[ Сегодня идет свободное скачивание без начисления Download ]


Статистика раздачи
Качаю: [ 2 ]
Скачал: [ 17 ]
 
   
 
 
 
 
Tomb Raider: Лара Крофт / Tomb Raider (2018) BDRip 1080p | 60 fps •Название: Tomb Raider: Лара Крофт
•Оригинальное название: Tomb Raider
•Год выхода: 2018
•Жанр: фэнтези, боевик, приключения
•Режиссер: Роар Утхауг / Roar Uthaug
•В ролях: Алисия Викандер (Lara Croft), Доминик Уэст (Richard Croft), Уолтон Гоггинс (Mathias Vogel), Дэниэл Ву (Lu Ren), Кристин Скотт Томас (Ana Miller), Дерек Джекоби (Mr. Yaffe), Александр Виллауме (Lieutenant), Тамер Барджаг (Mercenary), Эдриан Коллинз (Mercenary), Кинэн Эррисон (Mercenary), Андриан Мазив (Mercenary), Милтон Шорр (Mercenary)
•О фильме:
Лара Крофт - весьма самостоятельная дочь эксцентричного искателя приключений, который пропал, едва она стала подростком. Теперь ей двадцать один, она бесцельно проживает свою жизнь, курьером рассекая на байке по забитым улицам восточного Лондона. Решительно настроенная пробиться сама, она отказывается брать на себя руководство глобальной империей отца, столь же категорично отвергая мысль о том, что он действительно пропал. Слыша советы о том, что ей нужно смириться с этим фактом и жить дальше после семи лет бесплодных поисков, Лара уже и сама не понимает, что же заставляет ее распутывать обстоятельства его таинственного исчезновения.

Страна: Великобритания, США
Продолжительность: 01:57:50
Перевод: Профессиональный (полное дублирование) [Лицензия]
Формат: MKV
Качество: BDRip 1080p (Источник: BDRemux 1080p)
Видео: MPEG-4 AVC, 1920x800 (2.40:1), 16.8 Mbps, 60 fps, 0,183 bpp
Аудио №1: Русский / AC3 / 5.1 / 48 kHz / 448 kbps / 16 bit
Аудио №2: Украинский / AC3 / 2.0 / 48 kHz / 192 kbps / 16 bit
Аудио №3: Английский / DTS / 5.1 / 48 kHz / 1509 kbps / 24 bit
Субтитры: Русские, Английские

Media Info

General
Unique ID : 236921185228536420113787008509395290567 (0xB23D5C4A53A2168A5C8421C9E75B49C7)
Complete name : E:Tomb.Raider.2018.BDRip.1080p.60fps.and77200.mkv
Format : Matroska
Format version : Version 4 / Version 2
File size : 15.9 GiB
Duration : 1h 57mn
Overall bit rate : 19.4 Mbps
Movie name : Tomb.Raider.2018 - and77200
Encoded date : UTC 2018-06-15 06:10:59
Writing application : mkvmerge v20.0.0 ('I Am The Sun') 64-bit
Writing library : libebml v1.3.5 + libmatroska v1.4.8
DURATION : 01:56:49.325000000
NUMBER_OF_FRAMES : 1122
NUMBER_OF_BYTES : 40979
_STATISTICS_WRITING_APP : mkvmerge v20.0.0 ('I Am The Sun') 64-bit
_STATISTICS_WRITING_DATE_UTC : 2018-06-15 06:10:59
_STATISTICS_TAGS : BPS DURATION NUMBER_OF_FRAMES NUMBER_OF_BYTES
Video
ID : 1
Format : AVC
Format/Info : Advanced Video Codec
Format profile : [email protected]
Format settings, CABAC : Yes
Format settings, ReFrames : 5 frames
Codec ID : V_MPEG4/ISO/AVC
Duration : 1h 57mn
Bit rate : 16.8 Mbps
Width : 1 920 pixels
Height : 800 pixels
Display aspect ratio : 2.40:1
Frame rate : 60.000 fps
Color space : YUV
Chroma subsampling : 4:2:0
Bit depth : 8 bits
Scan type : Progressive
Bits/(Pixel*Frame) : 0.183
Stream size : 13.9 GiB (87%)
Title : Tomb.Raider.2018 - and77200
Writing library : x264 core 155 r2901M 7d0ff22
Encoding settings : cabac=1 / ref=5 / deblock=1:-1:-1 / analyse=0x3:0x113 / me=umh / subme=11 / psy=1 / psy_rd=1.05:0.15 / mixed_ref=1 / me_range=32 / chroma_me=1 / trellis=2 / 8x8dct=1 / cqm=0 / deadzone=21,11 / fast_pskip=0 / chroma_qp_offset=-3 / threads=2 / lookahead_threads=1 / sliced_threads=0 / nr=0 / decimate=1 / interlaced=0 / bluray_compat=0 / constrained_intra=0 / bframes=9 / b_pyramid=2 / b_adapt=2 / b_bias=0 / direct=3 / weightb=1 / open_gop=0 / weightp=2 / keyint=600 / keyint_min=60 / scenecut=40 / intra_refresh=0 / rc_lookahead=60 / rc=crf / mbtree=1 / crf=17.5 / qcomp=0.70 / qpmin=3 / qpmax=69 / qpstep=9 / ip_ratio=1.40 / aq=2:1.00
Language : English
Default : Yes
Forced : No
DURATION : 01:57:50.400000000
NUMBER_OF_FRAMES : 424224
NUMBER_OF_BYTES : 15207866840
_STATISTICS_WRITING_APP : mkvmerge v20.0.0 ('I Am The Sun') 64-bit
_STATISTICS_WRITING_DATE_UTC : 2018-06-15 06:10:59
_STATISTICS_TAGS : BPS DURATION NUMBER_OF_FRAMES NUMBER_OF_BYTES
Audio #1
ID : 2
Format : AC-3
Format/Info : Audio Coding 3
Mode extension : CM (complete main)
Codec ID : A_AC3
Duration : 1h 57mn
Bit rate mode : Constant
Bit rate : 448 Kbps
Channel(s) : 6 channels
Channel positions : Front: L C R, Side: L R, LFE
Sampling rate : 48.0 KHz
Bit depth : 16 bits
Compression mode : Lossy
Stream size : 378 MiB (2%)
Title : Dub | DD 5.1 @ 448 kbps - Blu-ray CEE
Language : Russian
Default : No
Forced : Yes
Audio #2
ID : 3
Format : AC-3
Format/Info : Audio Coding 3
Mode extension : CM (complete main)
Codec ID : A_AC3
Duration : 1h 57mn
Bit rate mode : Constant
Bit rate : 192 Kbps
Channel(s) : 2 channels
Channel positions : Front: L R
Sampling rate : 48.0 KHz
Bit depth : 16 bits
Compression mode : Lossy
Stream size : 162 MiB (1%)
Title : Dub
Language : Ukrainian
Default : No
Forced : No
Audio #3
ID : 4
Format : DTS
Format/Info : Digital Theater Systems
Codec ID : A_DTS
Duration : 1h 57mn
Bit rate mode : Constant
Bit rate : 1 510 Kbps
Channel(s) : 6 channels
Channel positions : Front: L C R, Side: L R, LFE
Sampling rate : 48.0 KHz
Bit depth : 24 bits
Compression mode : Lossy
Stream size : 1.24 GiB (8%)
Language : English
Default : No
Forced : No
Text #1
ID : 5
Format : UTF-8
Codec ID : S_TEXT/UTF8
Codec ID/Info : UTF-8 Plain Text
Title : Forced
Language : Russian
Default : Yes
Forced : No
Text #2
ID : 6
Format : UTF-8
Codec ID : S_TEXT/UTF8
Codec ID/Info : UTF-8 Plain Text
Title : Blu-ray CEE
Language : Russian
Default : No
Forced : No
Text #3
ID : 7
Format : UTF-8
Codec ID : S_TEXT/UTF8
Codec ID/Info : UTF-8 Plain Text
Title : Full
Language : English
Default : No
Forced : No
Text #4
ID : 8
Format : UTF-8
Codec ID : S_TEXT/UTF8
Codec ID/Info : UTF-8 Plain Text
Title : SDH
Language : English
Default : No
Forced : No
Text #5
ID : 9
Format : UTF-8
Codec ID : S_TEXT/UTF8
Codec ID/Info : UTF-8 Plain Text
Title : SDH-Colored
Language : English
Default : No
Forced : No
Menu
00:00:00.000 : :00:00:00.000
00:13:13.251 : :00:13:13.251
00:24:04.234 : :00:24:04.234
00:31:57.999 : :00:31:57.999
00:39:57.061 : :00:39:57.061
00:50:31.070 : :00:50:31.070
01:04:49.844 : :01:04:49.844
01:13:58.100 : :01:13:58.100
01:20:17.396 : :01:20:17.396
01:27:41.131 : :01:27:41.131
01:38:41.624 : :01:38:41.624
01:51:17.421 : :01:51:17.421

[Цитировать]



Показать сообщения:    

Текущее время: 25-Авг 09:54

Часовой пояс: UTC + 6


Вы не можете начинать темы
Вы не можете отвечать на сообщения
Вы не можете редактировать свои сообщения
Вы не можете удалять свои сообщения
Вы не можете голосовать в опросах
Вы не можете прикреплять файлы к сообщениям
Вы не можете скачивать файлы

!ВНИМАНИЕ!
Сайт не предоставляет электронные версии произведений, а занимается лишь коллекционированием и каталогизацией ссылок, присылаемых и публикуемых на форуме нашими читателями. Если вы являетесь правообладателем какого-либо представленного материала и не желаете, чтобы ссылка на него находилась в нашем каталоге, свяжитесь с нами, и мы незамедлительно удалим ее. Файлы для обмена на трекере предоставлены пользователями сайта, и администрация не несет ответственности за их содержание. Просьба не заливать файлы, защищенные авторскими правами, а также файлы нелегального содержания!