[ Сегодня идет свободное скачивание без начисления Download ]


Статистика раздачи
Скачал: [ 12 ]
 
   
 
 
 
 
Сквозь горизонт / Event Horizon (1997) BDRip-HEVC 720p | 60 fps Год выпуска: 1997
Страна: Великобритания, США
Жанр: Ужасы, Фантастика, Триллер
Продолжительность: 01:35:57
Перевод: MVO, DVO, AVO, Original
Субтитры: Русские (полные), Английские (полные, SHD)
Режиссер: Пол У. С. Андерсон
В ролях: Лоуренс Фишборн, Сэм Нилл, Кэтлин Куинлен, Джоэли Ричардсон, Ричард Т. Джонс, Джек Ноузворфи, Джейсон Айзекс, Шон Пертуи, Питер Маринкер, Холли Чэнт, Барклай Райт, Ной Хантли, Роберт Йезек, Эмили Бут, Тереза Мэй
Описание:
2047 год. Спасательный космический корабль послан к границе Солнечной системы с целью выяснить, что произошло с экипажем первого звездолета "Ивент Хорайзон", созданного для путешествий со сверхсветовой скоростью и бесследно исчезнувшего при первом же полете. Внезапно появившийся из ниоткуда, он был обнаружен возле далекой планеты Нептун. Шаг за шагом находя ответы на свои вопросы, команда начинает поддаваться чувству жуткого страха и ужаса, глубина которых соизмерима только с бескрайними просторами космоса...
Качество: BDRip 720p / 60 FPS
Формат: MKV
Видео кодек: H.265
Аудио кодек: AC3
Видео: HEVC, 1280x544 (2.35:1), 3782 kbps, 60.000 fps, 0.091 bpp
Аудио#1: AC3 / 5.1 / 48 kHz / 448 kbps / 16 bit | MVO Киномания
Аудио#2: AC3 / 5.1 / 48 kHz / 448 kbps / 16 bit | MVO Селена интернешенел
Аудио#3: AC3 / 5.1 / 48 kHz / 448 kbps / 16 bit | DVO Tycoon
Аудио#4: AC3 / 5.1 / 48 kHz / 448 kbps / 16 bit | DVO П.Гланц и И.Королёв
Аудио#5: AC3 / 5.1 / 48 kHz / 448 kbps / 16 bit | DVO Премьер видео
Аудио#6: AC3 / 5.1 / 48 kHz / 448 kbps / 16 bit | AVO А.Гаврилов
Аудио#7: AC3 / 5.1 / 48 kHz / 448 kbps / 16 bit | AVO Ю.Живов
Аудио#8: AC3 / 5.1 / 48 kHz / 448 kbps / 16 bit | AVO В.Горчаков
Аудио#9: AC3 / 5.1 / 48 kHz / 448 kbps / 16 bit | AVO С.Визгунов
Аудио#10: AC3 / 5.1 / 48 kHz / 448 kbps / 16 bit | Original

Как посмотреть на ТВ не читающих h.265 (HEVC)

Для просмотра видео в качестве 60 FPS на телевизоре (медиаплеере) сначала скачайте и посмотрите сэмпл, очень много железа не поддерживает либо плохо переваривает 60 FPS особенно в HEVC H.265, однако если вы твердо решили посмотреть видео на своём огромном 55 дюймовом ТВ то есть несколько способов.
Вариант 1
Обладателям современных цифровых приставок и телевизоров с поддержкой h.265 достаточно скинуть на флешку или внешний жесткий диск файл , подключить его к устройству и запустить как видеофайл.
вариант 2
Подключите ваш ноут к ТВ через HDMI кабель как второй монитор.Предварительно конечно придется настроить медиаплеер в самом ноутбуке.

Вариант 3
Если ваш телевизор из разряда СМАРТ и в нем есть наличие wifi то вы можете подключить его к ПК по технологии widi/miracast. Сделать это можно корректно на windows 10 подключив к ПК wifi адаптер (100-300мбит), включив режим дубля монитора.Но если расстояние между адаптером и телевизором слишком высокое или есть куча препятствий то это будет отражаться на самом сигнале.

вариант 4
Если у вас к примеру к телевизору подключена приставка подключенная по локальной или беспроводной сети способная корректно отображать рабочий стол с ПК.(STEAM Link) то можно вместо игры запустить данный фильм в медиаплеере дружащим с h.265.
Вариант 5
Если у вас есть смартфон способный корректно читать у себя HEVC , то вы можете подключить его по технологии wifi-Direct к телевизору.Таким образом все то что будет происходить у вас на смартфоне будет отображаться на вашем ТВ.Включая и воспроизведение фильма.

MediaInfo

General
Unique ID : 109190537242637877484184854818546626875 (0x52255520D00F618409FAF777B2ADB13B)
Complete name : D:TorrentsСквозь горизонт BDRip-HEVC 720p 60fps.mkv
Format : Matroska
Format version : Version 4 / Version 2
File size : 5.33 GiB
Duration : 1 h 35 min
Overall bit rate : 7 947 kb/s
Movie name : Сквозь горизонт 1997 by Tiberiumsun69
Encoded date : UTC 2018-03-06 11:25:24
Writing application : mkvmerge v20.0.0 ('I Am The Sun') 64-bit
Writing library : libebml v1.3.5 + libmatroska v1.4.8
Video
ID : 1
Format : HEVC
Format/Info : High Efficiency Video Coding
Format profile : Main [email protected]@High
Codec ID : V_MPEGH/ISO/HEVC
Duration : 1 h 35 min
Bit rate : 3 782 kb/s
Width : 1 280 pixels
Height : 544 pixels
Display aspect ratio : 2.35:1
Frame rate mode : Constant
Frame rate : 60.000 FPS
Color space : YUV
Chroma subsampling : 4:2:0
Bit depth : 10 bits
Bits/(Pixel*Frame) : 0.091
Stream size : 2.53 GiB (48%)
Writing library : x265 2.6+49-7219376de42a:[Windows][GCC 8.0.1][64 bit] 10bit
Encoding settings : cpuid=1173503 / frame-threads=3 / numa-pools=8 / wpp / no-pmode / no-pme / psnr / ssim / log-level=2 / input-csp=1 / input-res=1280x544 / interlace=0 / total-frames=345411 / level-idc=40 / high-tier=1 / uhd-bd=0 / ref=4 / no-allow-non-conformance / no-repeat-headers / annexb / no-aud / no-hrd / info / hash=0 / no-temporal-layers / open-gop / min-keyint=25 / keyint=250 / gop-lookahead=0 / bframes=8 / b-adapt=2 / b-pyramid / bframe-bias=0 / rc-lookahead=30 / lookahead-slices=0 / scenecut=40 / radl=0 / no-intra-refresh / ctu=64 / min-cu-size=8 / rect / no-amp / max-tu-size=32 / tu-inter-depth=1 / tu-intra-depth=1 / limit-tu=0 / rdoq-level=2 / dynamic-rd=0.00 / no-ssim-rd / signhide / no-tskip / nr-intra=0 / nr-inter=0 / no-constrained-intra / strong-intra-smoothing / max-merge=3 / limit-refs=3 / limit-modes / me=3 / subme=7 / merange=57 / temporal-mvp / weightp / no-weightb / no-analyze-src-pics / deblock=0:0 / sao / no-sao-non-deblock / rd=4 / no-early-skip / rskip / no-fast-intra / no-tskip-fast / no-cu-lossless / no-b-intra / no-splitrd-skip / rdpenalty=0 / psy-rd=2.00 / psy-rdoq=1.00 / no-rd-refine / no-lossless / cbqpoffs=0 / crqpoffs=0 / rc=crf / crf=18.0 / qcomp=0.70 / qpstep=4 / stats-write=0 / stats-read=0 / vbv-maxrate=30000 / vbv-bufsize=30000 / vbv-init=0.9 / crf-max=0.0 / crf-min=0.0 / ipratio=1.40 / pbratio=1.30 / aq-mode=1 / aq-strength=1.00 / cutree / zone-count=0 / no-strict-cbr / qg-size=32 / no-rc-grain / qpmax=69 / qpmin=0 / no-const-vbv / sar=1 / overscan=0 / videoformat=5 / range=0 / colorprim=2 / transfer=2 / colormatrix=2 / chromaloc=0 / display-window=0 / max-cll=0,0 / min-luma=0 / max-luma=1023 / log2-max-poc-lsb=8 / vui-timing-info / vui-hrd-info / slices=1 / no-opt-qp-pps / no-opt-ref-list-length-pps / no-multi-pass-opt-rps / scenecut-bias=0.05 / no-opt-cu-delta-qp / no-aq-motion / no-hdr / no-hdr-opt / no-dhdr10-opt / analysis-reuse-level=5 / scale-factor=0 / refine-intra=0 / refine-inter=0 / refine-mv=0 / no-limit-sao / ctu-info=0 / no-lowpass-dct / refine-mv-type=0 / copy-pic=1
Default : Yes
Forced : No
Audio #1
ID : 2
Format : AC-3
Format/Info : Audio Coding 3
Codec ID : A_AC3
Duration : 1 h 35 min
Bit rate mode : Constant
Bit rate : 448 kb/s
Channel(s) : 6 channels
Channel positions : Front: L C R, Side: L R, LFE
Sampling rate : 48.0 kHz
Frame rate : 31.250 FPS (1536 SPF)
Bit depth : 16 bits
Compression mode : Lossy
Stream size : 307 MiB (6%)
Title : MVO - Киномания / Superbit
Language : Russian
Service kind : Complete Main
Default : Yes
Forced : No
Audio #2
ID : 3
Format : AC-3
Format/Info : Audio Coding 3
Codec ID : A_AC3
Duration : 1 h 35 min
Bit rate mode : Constant
Bit rate : 192 kb/s
Channel(s) : 2 channels
Channel positions : Front: L R
Sampling rate : 48.0 kHz
Frame rate : 31.250 FPS (1536 SPF)
Bit depth : 16 bits
Compression mode : Lossy
Stream size : 132 MiB (2%)
Title : MVO - Селена интернешнл по заказу СТС
Language : Russian
Service kind : Complete Main
Default : No
Forced : No
Audio #3
ID : 4
Format : AC-3
Format/Info : Audio Coding 3
Codec ID : A_AC3
Duration : 1 h 35 min
Bit rate mode : Constant
Bit rate : 448 kb/s
Channel(s) : 6 channels
Channel positions : Front: L C R, Side: L R, LFE
Sampling rate : 48.0 kHz
Frame rate : 31.250 FPS (1536 SPF)
Bit depth : 16 bits
Compression mode : Lossy
Stream size : 307 MiB (6%)
Title : DVO - Tycoon
Language : Russian
Service kind : Complete Main
Default : No
Forced : No
Audio #4
ID : 5
Format : AC-3
Format/Info : Audio Coding 3
Codec ID : A_AC3
Duration : 1 h 35 min
Bit rate mode : Constant
Bit rate : 448 kb/s
Channel(s) : 6 channels
Channel positions : Front: L C R, Side: L R, LFE
Sampling rate : 48.0 kHz
Frame rate : 31.250 FPS (1536 SPF)
Bit depth : 16 bits
Compression mode : Lossy
Stream size : 307 MiB (6%)
Title : DVO - Петр Гланц и Инна Королева
Language : Russian
Service kind : Complete Main
Default : No
Forced : No
Audio #5
ID : 6
Format : AC-3
Format/Info : Audio Coding 3
Codec ID : A_AC3
Duration : 1 h 35 min
Bit rate mode : Constant
Bit rate : 384 kb/s
Channel(s) : 6 channels
Channel positions : Front: L C R, Side: L R, LFE
Sampling rate : 48.0 kHz
Frame rate : 31.250 FPS (1536 SPF)
Bit depth : 16 bits
Compression mode : Lossy
Stream size : 264 MiB (5%)
Title : DVO - Премьер видео
Language : Russian
Service kind : Complete Main
Default : No
Forced : No
Audio #6
ID : 7
Format : AC-3
Format/Info : Audio Coding 3
Codec ID : A_AC3
Duration : 1 h 35 min
Bit rate mode : Constant
Bit rate : 448 kb/s
Channel(s) : 6 channels
Channel positions : Front: L C R, Side: L R, LFE
Sampling rate : 48.0 kHz
Frame rate : 31.250 FPS (1536 SPF)
Bit depth : 16 bits
Compression mode : Lossy
Stream size : 307 MiB (6%)
Title : AVO - Андрей Гаврилов
Language : Russian
Service kind : Complete Main
Default : No
Forced : No
Audio #7
ID : 8
Format : AC-3
Format/Info : Audio Coding 3
Codec ID : A_AC3
Duration : 1 h 35 min
Bit rate mode : Constant
Bit rate : 448 kb/s
Channel(s) : 6 channels
Channel positions : Front: L C R, Side: L R, LFE
Sampling rate : 48.0 kHz
Frame rate : 31.250 FPS (1536 SPF)
Bit depth : 16 bits
Compression mode : Lossy
Stream size : 307 MiB (6%)
Title : AVO - Юрий Живов
Language : Russian
Service kind : Complete Main
Default : No
Forced : No
Audio #8
ID : 9
Format : AC-3
Format/Info : Audio Coding 3
Codec ID : A_AC3
Duration : 1 h 35 min
Bit rate mode : Constant
Bit rate : 448 kb/s
Channel(s) : 6 channels
Channel positions : Front: L C R, Side: L R, LFE
Sampling rate : 48.0 kHz
Frame rate : 31.250 FPS (1536 SPF)
Bit depth : 16 bits
Compression mode : Lossy
Stream size : 307 MiB (6%)
Title : AVO - Василий Горчаков
Language : Russian
Service kind : Complete Main
Default : No
Forced : No
Audio #9
ID : 10
Format : AC-3
Format/Info : Audio Coding 3
Codec ID : A_AC3
Duration : 1 h 35 min
Bit rate mode : Constant
Bit rate : 448 kb/s
Channel(s) : 6 channels
Channel positions : Front: L C R, Side: L R, LFE
Sampling rate : 48.0 kHz
Frame rate : 31.250 FPS (1536 SPF)
Bit depth : 16 bits
Compression mode : Lossy
Stream size : 307 MiB (6%)
Title : AVO - Сергей Визгунов
Language : Russian
Service kind : Complete Main
Default : No
Forced : No
Audio #10
ID : 11
Format : AC-3
Format/Info : Audio Coding 3
Codec ID : A_AC3
Duration : 1 h 35 min
Bit rate mode : Constant
Bit rate : 448 kb/s
Channel(s) : 6 channels
Channel positions : Front: L C R, Side: L R, LFE
Sampling rate : 48.0 kHz
Frame rate : 31.250 FPS (1536 SPF)
Bit depth : 16 bits
Compression mode : Lossy
Stream size : 307 MiB (6%)
Language : English
Service kind : Complete Main
Default : No
Forced : No
Text #1
ID : 12
Format : UTF-8
Codec ID : S_TEXT/UTF8
Codec ID/Info : UTF-8 Plain Text
Duration : 1 h 30 min
Bit rate : 95 b/s
Count of elements : 1039
Stream size : 63.4 KiB (0%)
Title : Киномания
Language : Russian
Default : No
Forced : No
Text #2
ID : 13
Format : UTF-8
Codec ID : S_TEXT/UTF8
Codec ID/Info : UTF-8 Plain Text
Duration : 1 h 30 min
Bit rate : 88 b/s
Count of elements : 1031
Stream size : 58.7 KiB (0%)
Title : Tycoon
Language : Russian
Default : No
Forced : No
Text #3
ID : 14
Format : UTF-8
Codec ID : S_TEXT/UTF8
Codec ID/Info : UTF-8 Plain Text
Duration : 1 h 26 min
Bit rate : 45 b/s
Count of elements : 1017
Stream size : 28.7 KiB (0%)
Title : Full
Language : English
Default : No
Forced : No
Text #4
ID : 15
Format : UTF-8
Codec ID : S_TEXT/UTF8
Codec ID/Info : UTF-8 Plain Text
Duration : 1 h 28 min
Bit rate : 54 b/s
Count of elements : 1061
Stream size : 35.3 KiB (0%)
Title : SDH
Language : English
Default : No
Forced : No
Menu
00:00:00.000 : en:Chapter 00
00:05:41.007 : en:Chapter 01
00:08:26.964 : en:Chapter 02
00:12:11.981 : en:Chapter 03
00:18:38.951 : en:Chapter 04
00:23:19.731 : en:Chapter 05
00:29:05.785 : en:Chapter 06
00:34:01.080 : en:Chapter 07
00:39:23.319 : en:Chapter 08
00:45:08.622 : en:Chapter 09
00:51:09.608 : en:Chapter 10
00:58:17.702 : en:Chapter 11
01:04:37.957 : en:Chapter 12
01:09:29.957 : en:Chapter 13
01:15:05.167 : en:Chapter 14
01:22:20.560 : en:Chapter 15
01:29:34.952 : en:Chapter 16

[Цитировать]



Показать сообщения:    

Текущее время: 25-Авг 09:55

Часовой пояс: UTC + 6


Вы не можете начинать темы
Вы не можете отвечать на сообщения
Вы не можете редактировать свои сообщения
Вы не можете удалять свои сообщения
Вы не можете голосовать в опросах
Вы не можете прикреплять файлы к сообщениям
Вы не можете скачивать файлы

!ВНИМАНИЕ!
Сайт не предоставляет электронные версии произведений, а занимается лишь коллекционированием и каталогизацией ссылок, присылаемых и публикуемых на форуме нашими читателями. Если вы являетесь правообладателем какого-либо представленного материала и не желаете, чтобы ссылка на него находилась в нашем каталоге, свяжитесь с нами, и мы незамедлительно удалим ее. Файлы для обмена на трекере предоставлены пользователями сайта, и администрация не несет ответственности за их содержание. Просьба не заливать файлы, защищенные авторскими правами, а также файлы нелегального содержания!