[ Сегодня идет свободное скачивание без начисления Download ]


Статистика раздачи
Качаю: [ 2 ]
Скачал: [ 4 ]
 
   
 
 
 
 
Апокалипсис / Apocalypto (2006) BDRip 720p | 60 fps Год выпуска: 2006
Страна: США
Жанр: Боевик, исторический, драма
Продолжительность: 02:18:21
Перевод: Профессиональный многоголосый закадровый, Профессиональный двухголосый закадровый, Авторский
Субтитры: Русские (полные), Украинские (Полные), Английские (полные)
Режиссер: Мэл Гибсон

В ролях: Руди Янгблад, Далия Эрнандез, Джонатан Брюэр, Моррис Бердйеллоухэд, Карлос Эмилио Баэс, Рамирез Амилкар, Израэл Контрерас, Израэль Риос, Мария Исабель Диас, Эспиридион Акоста Каче, Майра Сербуло, Иазуа Лариос, Лорена Эрнандес, Итандехуи Гутьеррез, Саюри Гутьеррез, Хирам Сото, Хосе Суарез, Рауль Трухильо, Херардо Тарасена, Родольфо Паласиос
Описание:
В фильме показана жизнь цивилизации майя до прихода испанских конкистадоров: жестокие войны с соседними племенами, человеческие жертвоприношения, загадочные мистические ритуалы. В один день рушится мир индейца по имени Лапа Ягуара. Его деревню захватывает соседнее племя, уничтожая хижины, забирая местных жителей в плен. Его ведут в город, чтобы принести в жертву богам. Перед лицом неминуемой смерти Лапа Ягуара должен побороть свои самые сильные страхи и совершить отчаянный рывок, чтобы спасти то, что ему дорого…
Качество: BDRip 720p / 60 FPS
Формат: MKV
Видео кодек: H.264
Аудио кодек: AC3
Видео: AVC, 1280x688 (1.85:1), 10900 kbps, 60.000 fps, 0.207 bpp
Аудио#1: AC3 / 5.1 / 48 kHz / 448 kbps / 16 bit | Профессиональный многоголосый закадровый - Позитив
Аудио#2: AC3 / 5.1 / 48 kHz / 640 kbps / 16 bit | Профессиональный двухголосый закадровый - Гланц / Королёва
Аудио#3: AC3 / 5.1 / 48 kHz / 640 kbps / 16 bit | Авторский - Строев
Аудио#4: AC3 / 5.1 / 48 kHz / 640 kbps / 16 bit | Авторский - Рябов
Аудио#5: AC3 / 5.1 / 48 kHz / 640 kbps / 16 bit | Авторский - Королев
Аудио#6: AC3 / 5.1 / 48 kHz / 448 kbps / 16 bit | Авторский - Живов
Аудио#7: AC3 / 2.0 / 48 kHz / 192 kbps / 16 bit | Профессиональный многоголосый закадровый - Украинский
Аудио#8: AC3 / 5.1 / 48 kHz / 640 kbps / 16 bit (Майя)

MediaInfo

General
Unique ID : 99092218209416543081436237261185082356 (0x4A8C778F50077594E582C12702BDE3F4)
Complete name : A:Апокалипсис BDrip 720p 60fps.mkv
Format : Matroska
Format version : Version 4 / Version 2
File size : 14.7 GiB
Duration : 2 h 18 min
Overall bit rate : 15.2 Mb/s
Movie name : Апокалипсис (2006) by Tiberiumsun69
Encoded date : UTC 2018-04-04 11:51:56
Writing application : mkvmerge v20.0.0 ('I Am The Sun') 64-bit
Writing library : libebml v1.3.5 + libmatroska v1.4.8
Video
ID : 1
Format : AVC
Format/Info : Advanced Video Codec
Format profile : [email protected]
Format settings : CABAC / 9 Ref Frames
Format settings, CABAC : Yes
Format settings, ReFrames : 9 frames
Codec ID : V_MPEG4/ISO/AVC
Duration : 2 h 18 min
Bit rate : 10.9 Mb/s
Width : 1 280 pixels
Height : 688 pixels
Display aspect ratio : 1.85:1
Frame rate mode : Constant
Frame rate : 60.000 FPS
Color space : YUV
Chroma subsampling : 4:2:0
Bit depth : 8 bits
Scan type : Progressive
Bits/(Pixel*Frame) : 0.207
Stream size : 10.6 GiB (72%)
Writing library : x264 core 146 r2538 121396c
Encoding settings : cabac=1 / ref=9 / deblock=1:-2:-2 / analyse=0x3:0x133 / me=umh / subme=10 / psy=1 / psy_rd=1.00:0.00 / mixed_ref=1 / me_range=32 / chroma_me=1 / trellis=2 / 8x8dct=1 / cqm=0 / deadzone=21,11 / fast_pskip=0 / chroma_qp_offset=-2 / threads=12 / lookahead_threads=2 / sliced_threads=0 / nr=0 / decimate=1 / interlaced=0 / bluray_compat=0 / constrained_intra=0 / bframes=8 / b_pyramid=2 / b_adapt=2 / b_bias=0 / direct=3 / weightb=1 / open_gop=0 / weightp=2 / keyint=250 / keyint_min=25 / scenecut=40 / intra_refresh=0 / rc_lookahead=60 / rc=crf / mbtree=0 / crf=17.0 / qcomp=0.80 / qpmin=0 / qpmax=69 / qpstep=4 / vbv_maxrate=62500 / vbv_bufsize=78125 / crf_max=0.0 / nal_hrd=none / filler=0 / ip_ratio=1.40 / pb_ratio=1.30 / aq=1:1.00
Language : English
Default : Yes
Forced : No
Audio #1
ID : 2
Format : AC-3
Format/Info : Audio Coding 3
Codec ID : A_AC3
Duration : 2 h 18 min
Bit rate mode : Constant
Bit rate : 448 kb/s
Channel(s) : 6 channels
Channel positions : Front: L C R, Side: L R, LFE
Sampling rate : 48.0 kHz
Frame rate : 31.250 FPS (1536 SPF)
Bit depth : 16 bits
Compression mode : Lossy
Delay relative to video : 200 ms
Stream size : 443 MiB (3%)
Title : MVO - Позитив
Language : Russian
Service kind : Complete Main
Default : Yes
Forced : No
Audio #2
ID : 3
Format : AC-3
Format/Info : Audio Coding 3
Codec ID : A_AC3
Duration : 2 h 18 min
Bit rate mode : Constant
Bit rate : 640 kb/s
Channel(s) : 6 channels
Channel positions : Front: L C R, Side: L R, LFE
Sampling rate : 48.0 kHz
Frame rate : 31.250 FPS (1536 SPF)
Bit depth : 16 bits
Compression mode : Lossy
Delay relative to video : 200 ms
Stream size : 633 MiB (4%)
Title : DVO - Гланц / Королёва
Language : Russian
Service kind : Complete Main
Default : No
Forced : No
Audio #3
ID : 4
Format : AC-3
Format/Info : Audio Coding 3
Codec ID : A_AC3
Duration : 2 h 18 min
Bit rate mode : Constant
Bit rate : 640 kb/s
Channel(s) : 6 channels
Channel positions : Front: L C R, Side: L R, LFE
Sampling rate : 48.0 kHz
Frame rate : 31.250 FPS (1536 SPF)
Bit depth : 16 bits
Compression mode : Lossy
Delay relative to video : 200 ms
Stream size : 633 MiB (4%)
Title : AVO - Строев
Language : Russian
Service kind : Complete Main
Default : No
Forced : No
Audio #4
ID : 5
Format : AC-3
Format/Info : Audio Coding 3
Codec ID : A_AC3
Duration : 2 h 18 min
Bit rate mode : Constant
Bit rate : 640 kb/s
Channel(s) : 6 channels
Channel positions : Front: L C R, Side: L R, LFE
Sampling rate : 48.0 kHz
Frame rate : 31.250 FPS (1536 SPF)
Bit depth : 16 bits
Compression mode : Lossy
Delay relative to video : 200 ms
Stream size : 633 MiB (4%)
Title : AVO - Рябов
Language : Russian
Service kind : Complete Main
Default : No
Forced : No
Audio #5
ID : 6
Format : AC-3
Format/Info : Audio Coding 3
Codec ID : A_AC3
Duration : 2 h 18 min
Bit rate mode : Constant
Bit rate : 640 kb/s
Channel(s) : 6 channels
Channel positions : Front: L C R, Side: L R, LFE
Sampling rate : 48.0 kHz
Frame rate : 31.250 FPS (1536 SPF)
Bit depth : 16 bits
Compression mode : Lossy
Delay relative to video : 200 ms
Stream size : 633 MiB (4%)
Title : AVO - Королёв
Language : Russian
Service kind : Complete Main
Default : No
Forced : No
Audio #6
ID : 7
Format : AC-3
Format/Info : Audio Coding 3
Codec ID : A_AC3
Duration : 2 h 18 min
Bit rate mode : Constant
Bit rate : 448 kb/s
Channel(s) : 6 channels
Channel positions : Front: L C R, Side: L R, LFE
Sampling rate : 48.0 kHz
Frame rate : 31.250 FPS (1536 SPF)
Bit depth : 16 bits
Compression mode : Lossy
Delay relative to video : 200 ms
Stream size : 443 MiB (3%)
Title : AVO - Живов
Language : Russian
Service kind : Complete Main
Default : No
Forced : No
Audio #7
ID : 8
Format : AC-3
Format/Info : Audio Coding 3
Codec ID : A_AC3
Duration : 2 h 18 min
Bit rate mode : Constant
Bit rate : 192 kb/s
Channel(s) : 2 channels
Channel positions : Front: L R
Sampling rate : 48.0 kHz
Frame rate : 31.250 FPS (1536 SPF)
Bit depth : 16 bits
Compression mode : Lossy
Delay relative to video : 200 ms
Stream size : 190 MiB (1%)
Title : MVO
Language : Ukrainian
Service kind : Complete Main
Default : No
Forced : No
Audio #8
ID : 9
Format : AC-3
Format/Info : Audio Coding 3
Codec ID : A_AC3
Duration : 2 h 18 min
Bit rate mode : Constant
Bit rate : 640 kb/s
Channel(s) : 6 channels
Channel positions : Front: L C R, Side: L R, LFE
Sampling rate : 48.0 kHz
Frame rate : 31.250 FPS (1536 SPF)
Bit depth : 16 bits
Compression mode : Lossy
Delay relative to video : 200 ms
Stream size : 633 MiB (4%)
Title : Оригинал (Майя)
Service kind : Complete Main
Default : No
Forced : No
Text #1
ID : 10
Format : UTF-8
Codec ID : S_TEXT/UTF8
Codec ID/Info : UTF-8 Plain Text
Duration : 2 h 8 min
Bit rate : 17 b/s
Count of elements : 447
Stream size : 16.2 KiB (0%)
Title : Русские
Language : Russian
Default : No
Forced : No
Text #2
ID : 11
Format : UTF-8
Codec ID : S_TEXT/UTF8
Codec ID/Info : UTF-8 Plain Text
Duration : 2 h 8 min
Bit rate : 10 b/s
Count of elements : 447
Stream size : 10.1 KiB (0%)
Title : Английские
Language : English
Default : No
Forced : No
Text #3
ID : 12
Format : UTF-8
Codec ID : S_TEXT/UTF8
Codec ID/Info : UTF-8 Plain Text
Duration : 2 h 9 min
Bit rate : 17 b/s
Count of elements : 447
Stream size : 16.2 KiB (0%)
Title : Украинские
Language : Ukrainian
Default : No
Forced : No
Menu
00:00:00.000 : :Chapter 01
00:08:19.332 : :Chapter 02
00:13:03.741 : :Chapter 03
00:19:17.281 : :Chapter 04
00:23:09.721 : :Chapter 05
00:32:34.243 : :Chapter 06
00:37:45.179 : :Chapter 07
00:48:28.655 : :Chapter 08
00:56:39.145 : :Chapter 09
01:00:53.775 : :Chapter 10
01:09:15.109 : :Chapter 11
01:18:12.938 : :Chapter 12
01:23:15.782 : :Chapter 13
01:32:12.276 : :Chapter 14
01:43:07.723 : :Chapter 15
01:50:14.983 : :Chapter 16
01:57:45.683 : :Chapter 17
02:08:06.470 : :Chapter 18
02:09:49.239 : :Chapter 19
02:18:21.084 : :Chapter 20

[Цитировать]



Показать сообщения:    

Текущее время: 25-Авг 09:55

Часовой пояс: UTC + 6


Вы не можете начинать темы
Вы не можете отвечать на сообщения
Вы не можете редактировать свои сообщения
Вы не можете удалять свои сообщения
Вы не можете голосовать в опросах
Вы не можете прикреплять файлы к сообщениям
Вы не можете скачивать файлы

!ВНИМАНИЕ!
Сайт не предоставляет электронные версии произведений, а занимается лишь коллекционированием и каталогизацией ссылок, присылаемых и публикуемых на форуме нашими читателями. Если вы являетесь правообладателем какого-либо представленного материала и не желаете, чтобы ссылка на него находилась в нашем каталоге, свяжитесь с нами, и мы незамедлительно удалим ее. Файлы для обмена на трекере предоставлены пользователями сайта, и администрация не несет ответственности за их содержание. Просьба не заливать файлы, защищенные авторскими правами, а также файлы нелегального содержания!