[ Сегодня идет свободное скачивание без начисления Download ]


Статистика раздачи
Качаю: [ 2 ]
Скачал: [ 6 ]
 
   
 
 
 
 
Разрушитель / Demolition Man (1993) BDRip 720p | 60 fps Год выпуска: 1993
Страна: США
Жанр: Фантастика, боевик, триллер
Продолжительность: 01:52:03
Перевод: Дубляж, Профессиональный многоголосый закадровый, Профессиональный двухголосый закадровый, Авторский
Субтитры: Русские (Форс, полные), Английские (полные, SHD)
Режиссер: Марко Брамбилла

В ролях: Сильвестр Сталлоне, Уэсли Снайпс, Сандра Буллок, Найджел Хоторн, Бенджамин Брэтт, Боб Гантон, Гленн Шэдикс, Дэнис Лири, Гранд Л. Буш, Пэт Скиппер
Описание:
В 2032 году в крио-тюрьме после 35-летней заморозки пробуждается один из самых опасных преступников Саймон Феникс и решает взять приступом спокойный, свободный от всякого насилия Лос-Анджелес. Неспособные справиться с жестокими повадками 1990-х годов, свойственными Фениксу, официальные власти ищут полицейского тех лет, который смог бы одержать верх над преступником 90-х. Для этого они размораживают сержанта Джона Спартана, несправедливо осужденного на срок в крио-тюрьме за его последнюю схватку с Фениксом...
Качество: BDRip 720p / 60 FPS
Формат: MKV
Видео кодек: H.264
Аудио кодек: AC3
Видео: AVC, 1280x536 (2.40:1), 6830 kbps, 60.000 fps, 0.166 bpp
Аудио#1: AC3 / 5.1 / 48 kHz / 640 kbps / 16 bit | Дубляж - Blu-ray CEE
Аудио#2: AC3 / 2.0 / 48 kHz / 192 kbps / 16 bit | Дубляж - Варус-Видео
Аудио#3: AC3 / 2.0 / 48 kHz / 192 kbps / 16 bit | Профессиональный многоголосый закадровый - РТР
Аудио#4: AC3 / 2.0 / 48 kHz / 192 kbps / 16 bit | Профессиональный многоголосый закадровый - ОРТ
Аудио#5: AC3 / 2.0 / 48 kHz / 224 kbps / 16 bit | Профессиональный двухголосый закадровый - TV1000
Аудио#6: AC3 / 2.0 / 48 kHz / 192 kbps / 16 bit | Профессиональный двухголосый закадровый - LNT
Аудио#7: AC3 / 5.1 / 48 kHz / 640 kbps / 16 bit | Авторский - Гаврилов
Аудио#8: AC3 / 2.0 / 44 kHz / 192 kbps / 16 bit | Авторский - Дольский
Аудио#9: AC3 / 2.0 / 48 kHz / 192 kbps / 16 bit | Авторский - Володарский
Аудио#10: AC3 / 5.1 / 48 kHz / 640 kbps / 16 bit | Авторский - Чадов
Аудио#11: AC3 / 5.1 / 48 kHz / 640 kbps / 16 bit

MediaInfo

General
Unique ID : 123445449842219465831808984727837588250 (0x5CDEBA94ED5B26BA9934D970ACB5BB1A)
Complete name : A:Разрушитель BDRip 720p 60fps.mkv
Format : Matroska
Format version : Version 4 / Version 2
File size : 8.66 GiB
Duration : 1 h 55 min
Overall bit rate : 10.8 Mb/s
Movie name : Разрушитель (1993) by Tiberiumsun69
Encoded date : UTC 2018-04-02 05:44:18
Writing application : mkvmerge v20.0.0 ('I Am The Sun') 64-bit
Writing library : libebml v1.3.5 + libmatroska v1.4.8
Video
ID : 1
Format : AVC
Format/Info : Advanced Video Codec
Format profile : [email protected]
Format settings : CABAC / 12 Ref Frames
Format settings, CABAC : Yes
Format settings, ReFrames : 12 frames
Codec ID : V_MPEG4/ISO/AVC
Duration : 1 h 55 min
Bit rate : 6 830 kb/s
Width : 1 280 pixels
Height : 536 pixels
Display aspect ratio : 2.40:1
Frame rate mode : Constant
Frame rate : 60.000 FPS
Color space : YUV
Chroma subsampling : 4:2:0
Bit depth : 8 bits
Scan type : Progressive
Bits/(Pixel*Frame) : 0.166
Stream size : 5.49 GiB (63%)
Writing library : x264 core 146 r2538 121396c
Encoding settings : cabac=1 / ref=12 / deblock=1:-2:-2 / analyse=0x3:0x133 / me=umh / subme=10 / psy=1 / psy_rd=1.00:0.00 / mixed_ref=1 / me_range=32 / chroma_me=1 / trellis=2 / 8x8dct=1 / cqm=0 / deadzone=21,11 / fast_pskip=0 / chroma_qp_offset=-2 / threads=12 / lookahead_threads=2 / sliced_threads=0 / nr=0 / decimate=1 / interlaced=0 / bluray_compat=0 / constrained_intra=0 / bframes=8 / b_pyramid=2 / b_adapt=2 / b_bias=0 / direct=3 / weightb=1 / open_gop=0 / weightp=2 / keyint=250 / keyint_min=25 / scenecut=40 / intra_refresh=0 / rc_lookahead=60 / rc=crf / mbtree=0 / crf=17.0 / qcomp=0.80 / qpmin=0 / qpmax=69 / qpstep=4 / vbv_maxrate=62500 / vbv_bufsize=78125 / crf_max=0.0 / nal_hrd=none / filler=0 / ip_ratio=1.40 / pb_ratio=1.30 / aq=1:1.00
Language : English
Default : Yes
Forced : No
Audio #1
ID : 2
Format : AC-3
Format/Info : Audio Coding 3
Codec ID : A_AC3
Duration : 1 h 55 min
Bit rate mode : Constant
Bit rate : 640 kb/s
Channel(s) : 6 channels
Channel positions : Front: L C R, Side: L R, LFE
Sampling rate : 48.0 kHz
Frame rate : 31.250 FPS (1536 SPF)
Bit depth : 16 bits
Compression mode : Lossy
Stream size : 527 MiB (6%)
Title : Дубляж ( Blu-ray CEE )
Language : Russian
Service kind : Complete Main
Default : Yes
Forced : No
Audio #2
ID : 3
Format : AC-3
Format/Info : Audio Coding 3
Codec ID : A_AC3
Duration : 1 h 54 min
Bit rate mode : Constant
Bit rate : 192 kb/s
Channel(s) : 2 channels
Channel positions : Front: L R
Sampling rate : 48.0 kHz
Frame rate : 31.250 FPS (1536 SPF)
Bit depth : 16 bits
Compression mode : Lossy
Stream size : 158 MiB (2%)
Title : Дубляж ( Варус-Видео )
Language : Russian
Service kind : Complete Main
Default : No
Forced : No
Audio #3
ID : 4
Format : AC-3
Format/Info : Audio Coding 3
Codec ID : A_AC3
Duration : 1 h 54 min
Bit rate mode : Constant
Bit rate : 192 kb/s
Channel(s) : 2 channels
Channel positions : Front: L R
Sampling rate : 48.0 kHz
Frame rate : 31.250 FPS (1536 SPF)
Bit depth : 16 bits
Compression mode : Lossy
Stream size : 158 MiB (2%)
Title : MVO ( РТР )
Language : Russian
Service kind : Complete Main
Default : No
Forced : No
Audio #4
ID : 5
Format : AC-3
Format/Info : Audio Coding 3
Codec ID : A_AC3
Duration : 1 h 55 min
Bit rate mode : Constant
Bit rate : 192 kb/s
Channel(s) : 2 channels
Channel positions : Front: L R
Sampling rate : 48.0 kHz
Frame rate : 31.250 FPS (1536 SPF)
Bit depth : 16 bits
Compression mode : Lossy
Stream size : 158 MiB (2%)
Title : MVO ( ОРТ )
Language : Russian
Service kind : Complete Main
Default : No
Forced : No
Audio #5
ID : 6
Format : AC-3
Format/Info : Audio Coding 3
Codec ID : A_AC3
Duration : 1 h 55 min
Bit rate mode : Constant
Bit rate : 224 kb/s
Channel(s) : 2 channels
Channel positions : Front: L R
Sampling rate : 48.0 kHz
Frame rate : 31.250 FPS (1536 SPF)
Bit depth : 16 bits
Compression mode : Lossy
Stream size : 184 MiB (2%)
Title : DVO ( TV1000 )
Language : Russian
Service kind : Complete Main
Default : No
Forced : No
Audio #6
ID : 7
Format : AC-3
Format/Info : Audio Coding 3
Codec ID : A_AC3
Duration : 1 h 55 min
Bit rate mode : Constant
Bit rate : 192 kb/s
Channel(s) : 2 channels
Channel positions : Front: L R
Sampling rate : 48.0 kHz
Frame rate : 31.250 FPS (1536 SPF)
Bit depth : 16 bits
Compression mode : Lossy
Stream size : 158 MiB (2%)
Title : DVO ( LNT )
Language : Russian
Service kind : Complete Main
Default : No
Forced : No
Audio #7
ID : 8
Format : AC-3
Format/Info : Audio Coding 3
Codec ID : A_AC3
Duration : 1 h 55 min
Bit rate mode : Constant
Bit rate : 640 kb/s
Channel(s) : 6 channels
Channel positions : Front: L C R, Side: L R, LFE
Sampling rate : 48.0 kHz
Frame rate : 31.250 FPS (1536 SPF)
Bit depth : 16 bits
Compression mode : Lossy
Stream size : 527 MiB (6%)
Title : AVO ( Гаврилов )
Language : Russian
Service kind : Complete Main
Default : No
Forced : No
Audio #8
ID : 9
Format : AC-3
Format/Info : Audio Coding 3
Codec ID : A_AC3
Duration : 1 h 55 min
Bit rate mode : Constant
Bit rate : 192 kb/s
Channel(s) : 2 channels
Channel positions : Front: L R
Sampling rate : 44.1 kHz
Frame rate : 28.711 FPS (1536 SPF)
Bit depth : 16 bits
Compression mode : Lossy
Stream size : 158 MiB (2%)
Title : AVO ( Дольский )
Language : Russian
Service kind : Complete Main
Default : No
Forced : No
Audio #9
ID : 10
Format : AC-3
Format/Info : Audio Coding 3
Codec ID : A_AC3
Duration : 1 h 55 min
Bit rate mode : Constant
Bit rate : 192 kb/s
Channel(s) : 2 channels
Channel positions : Front: L R
Sampling rate : 48.0 kHz
Frame rate : 31.250 FPS (1536 SPF)
Bit depth : 16 bits
Compression mode : Lossy
Stream size : 158 MiB (2%)
Title : AVO ( Володарский )
Language : Russian
Service kind : Complete Main
Default : No
Forced : No
Audio #10
ID : 11
Format : AC-3
Format/Info : Audio Coding 3
Codec ID : A_AC3
Duration : 1 h 55 min
Bit rate mode : Constant
Bit rate : 640 kb/s
Channel(s) : 6 channels
Channel positions : Front: L C R, Side: L R, LFE
Sampling rate : 48.0 kHz
Frame rate : 31.250 FPS (1536 SPF)
Bit depth : 16 bits
Compression mode : Lossy
Stream size : 527 MiB (6%)
Title : AVO ( Чадов )
Language : Russian
Service kind : Complete Main
Default : No
Forced : No
Audio #11
ID : 12
Format : AC-3
Format/Info : Audio Coding 3
Codec ID : A_AC3
Duration : 1 h 55 min
Bit rate mode : Constant
Bit rate : 640 kb/s
Channel(s) : 6 channels
Channel positions : Front: L C R, Side: L R, LFE
Sampling rate : 48.0 kHz
Frame rate : 31.250 FPS (1536 SPF)
Bit depth : 16 bits
Compression mode : Lossy
Stream size : 527 MiB (6%)
Language : English
Service kind : Complete Main
Default : No
Forced : No
Text #1
ID : 13
Format : UTF-8
Codec ID : S_TEXT/UTF8
Codec ID/Info : UTF-8 Plain Text
Duration : 1 h 54 min
Bit rate : 0 b/s
Count of elements : 14
Stream size : 401 Bytes (0%)
Title : Forced
Language : Russian
Default : Yes
Forced : Yes
Text #2
ID : 14
Format : UTF-8
Codec ID : S_TEXT/UTF8
Codec ID/Info : UTF-8 Plain Text
Duration : 1 h 54 min
Bit rate : 86 b/s
Count of elements : 1472
Stream size : 72.4 KiB (0%)
Language : Russian
Default : No
Forced : No
Text #3
ID : 15
Format : UTF-8
Codec ID : S_TEXT/UTF8
Codec ID/Info : UTF-8 Plain Text
Duration : 1 h 49 min
Bit rate : 57 b/s
Count of elements : 1466
Stream size : 46.0 KiB (0%)
Language : English
Default : No
Forced : No
Text #4
ID : 16
Format : UTF-8
Codec ID : S_TEXT/UTF8
Codec ID/Info : UTF-8 Plain Text
Duration : 1 h 54 min
Bit rate : 65 b/s
Count of elements : 1561
Stream size : 54.8 KiB (0%)
Title : SDH
Language : English
Default : No
Forced : No
Menu
00:00:00.000 : en:Los Angeles 1996: Send in the Maniac
00:02:50.211 : en:A Hot Time
00:07:10.847 : en:A Cold Sentence
00:11:30.523 : en:2032: Lenina Lacks Stimulus
00:16:46.213 : en:One Parole Hearing = 4 Mdk's
00:22:59.878 : en:No Respect for the Law
00:28:39.467 : en:The Governor's Problem
00:31:03.987 : en:Legend of the Demolition Man
00:32:43.878 : en:Wake-Up Call
00:37:45.554 : en:"So Much for the Sea Shells"
00:41:26.775 : en:Violence in the Hall
00:47:32.015 : en:Blast From the Past
00:51:13.320 : en:"Don't You Have Someone to Kill?"
00:54:35.313 : en:The Chief's Plan; What All Restaurants Are
00:57:18.017 : en:Dining with the Governor
01:00:17.196 : en:Attack of the Scraps
01:03:16.542 : en:After-Dinner Chats
01:07:41.932 : en:21St Century Sex
01:14:57.326 : en:A Gift for Lenina; Phoenix's Programming
01:17:39.446 : en:Confronting Cocteau
01:19:54.331 : en:Wasteland
01:24:09.252 : en:Friendly's Manifesto
01:27:03.885 : en:"Let's Bring Back the Good Old Days"
01:28:04.904 : en:Unwelcome Guests
01:30:25.962 : en:Pedal to the Metal
01:34:50.309 : en:Unexpected Allies
01:37:10.825 : en:End of the Cocteau Plan
01:41:16.904 : en:Cryoprison Chaos
01:45:52.179 : en:"This Is the Best Day of My Life"
01:48:42.641 : en:"I Think I'm Gonna Like the Future"

[Цитировать]



Показать сообщения:    

Текущее время: 24-Авг 18:27

Часовой пояс: UTC + 6


Вы не можете начинать темы
Вы не можете отвечать на сообщения
Вы не можете редактировать свои сообщения
Вы не можете удалять свои сообщения
Вы не можете голосовать в опросах
Вы не можете прикреплять файлы к сообщениям
Вы не можете скачивать файлы

!ВНИМАНИЕ!
Сайт не предоставляет электронные версии произведений, а занимается лишь коллекционированием и каталогизацией ссылок, присылаемых и публикуемых на форуме нашими читателями. Если вы являетесь правообладателем какого-либо представленного материала и не желаете, чтобы ссылка на него находилась в нашем каталоге, свяжитесь с нами, и мы незамедлительно удалим ее. Файлы для обмена на трекере предоставлены пользователями сайта, и администрация не несет ответственности за их содержание. Просьба не заливать файлы, защищенные авторскими правами, а также файлы нелегального содержания!